<?xml version="1.0" standalone="no"?>
<!DOCTYPE svg PUBLIC "-//W3C//DTD SVG 1.1//EN" "http://www.w3.org/Graphics/SVG/1.1/DTD/svg11.dtd" >
<svg xmlns="http://www.w3.org/2000/svg">
<metadata>Generated by IcoMoon</metadata>
<defs>
<font id="icomoon" horiz-adv-x="1024">
<font-face units-per-em="1024" ascent="960" descent="-64" />
<missing-glyph horiz-adv-x="1024" />
<glyph unicode="&#x20;" horiz-adv-x="512" d="" />
<glyph unicode="&#xe800;" glyph-name="email" d="M11.6 900.142v-828.988h1000.78v828.988h-1000.78zM873.623 813.069l-361.623-373.636-361.623 373.636h723.226zM98.673 158.226v585.464l413.327-427.329 413.327 427.674v-585.464h-826.654z" />
<glyph unicode="&#xe801;" glyph-name="grid" d="M232.48 958.912h-186.119c-17.121 0-31.147-14.026-31.147-31.147v-186.119c0-17.121 14.026-31.147 31.147-31.147h186.119c17.121 0 31.147 14.026 31.147 31.147v186.119c0 17.442-14.026 31.147-31.147 31.147zM232.48 586.714h-186.119c-17.121 0-31.147-14.026-31.147-31.147v-186.119c0-17.121 14.026-31.147 31.147-31.147h186.119c17.121 0 31.147 14.026 31.147 31.147v186.119c0 17.121-14.026 31.147-31.147 31.147zM232.48 214.115h-186.119c-17.121 0-31.147-14.026-31.147-31.147v-186.119c0-17.121 14.026-31.147 31.147-31.147h186.119c17.121 0 31.147 14.026 31.147 31.147v186.119c0 17.442-14.026 31.147-31.147 31.147zM605.039 958.912h-186.119c-17.121 0-31.147-14.026-31.147-31.147v-186.119c0-17.121 14.026-31.147 31.147-31.147h186.119c17.121 0 31.147 14.026 31.147 31.147v186.119c-0.362 17.442-14.026 31.147-31.147 31.147zM605.039 586.714h-186.119c-17.121 0-31.147-14.026-31.147-31.147v-186.119c0-17.121 14.026-31.147 31.147-31.147h186.119c17.121 0 31.147 14.026 31.147 31.147v186.119c-0.362 17.121-14.026 31.147-31.147 31.147zM605.039 214.115h-186.119c-17.121 0-31.147-14.026-31.147-31.147v-186.119c0-17.121 14.026-31.147 31.147-31.147h186.119c17.121 0 31.147 14.026 31.147 31.147v186.119c-0.362 17.442-14.026 31.147-31.147 31.147zM977.277 958.912h-186.119c-17.121 0-31.147-14.026-31.147-31.147v-186.119c0-17.121 14.026-31.147 31.147-31.147h186.119c17.121 0 31.147 14.026 31.147 31.147v186.119c0 17.442-14.026 31.147-31.147 31.147zM977.277 586.714h-186.119c-17.121 0-31.147-14.026-31.147-31.147v-186.119c0-17.121 14.026-31.147 31.147-31.147h186.119c17.121 0 31.147 14.026 31.147 31.147v186.119c0 17.121-14.026 31.147-31.147 31.147zM977.277 214.115h-186.119c-17.121 0-31.147-14.026-31.147-31.147v-186.119c0-17.121 14.026-31.147 31.147-31.147h186.119c17.121 0 31.147 14.026 31.147 31.147v186.119c0 17.442-14.026 31.147-31.147 31.147z" />
<glyph unicode="&#xe802;" glyph-name="marker" d="M862.801 689.122c-38.874 157.566-181.401 274.828-350.801 274.828-199.201 0-361.234-162.033-361.234-361.234 0-45.451 18.993-108.702 56.536-187.811 30.009-63.389 71.88-137.074 124.491-218.944 24.821-38.597 49.682-75.46 72.699-108.604l51.694-72.699c0 0 0-0.069 0.069-0.069 13.638-18.786 25.472-34.643 34.712-47.019 6.854-6.173 13.707-9.822 20.699-9.822h0.375c7.672 0.138 15.206 4.704 22.711 12.139 7.367 9.822 16.232 21.754 26.291 35.462l62.64 87.974c21.893 31.577 45.284 66.387 68.606 102.736 52.512 81.87 94.453 155.554 124.491 218.944 21.38 45.215 36.793 85.213 46.033 119.649 6.992 25.847 10.433 48.656 10.433 68.093-0.069 29.732-3.718 58.715-10.502 86.406zM745.982 434.065c-52.581-72.422-137.892-119.579-233.982-119.579s-181.47 47.157-234.081 119.579c-35.836 49.376-56.536 110.478-54.968 176.421 3.412 147.813 130.22 276.465 277.935 281.958 164.42 6.173 300.133-125.822 300.133-288.91 0-63.251-20.423-121.799-55.066-169.469z" />
<glyph unicode="&#xe803;" glyph-name="completed" d="M931.812 959.154c-36.247 23.661-87.084 16.102-113.24-16.102l-410.741-501.37-136.901 154.023c-27.668 31.22-79.034 36.739-114.261 12.095s-41.274-70.454-13.607-101.674l269.304-304.040 537.588 656.384c26.193 32.203 18.105 77.522-18.105 100.691z" />
<glyph unicode="&#xe804;" glyph-name="phone" d="M181.364 848.668c-6.632-5.616-8.692-15.592-5.616-25.3 0 0 143.348-281.052 238.636-406 95.048-124.44 204.672-237.888 322.452-332.16 9.44-10.992 24.016-14.576 33.484-7.916l144.872 102.964c9.708 6.9 10.216 22.732 1.016 34.74l-146.396 191.648c-9.2 12.276-24.524 15.832-33.992 8.184l-65.656-53.648c-91.732 95.048-173.756 202.372-241.472 315.82l69.24 49.316c9.708 6.9 10.216 22.732 1.016 34.74l-146.396 191.648c-9.2 12.276-24.524 15.832-33.992 8.184l-137.224-112.164z" />
<glyph unicode="&#xe805;" glyph-name="profile" d="M682.646 459.087c0 0-6.434 1.587-18.941 3.852-10.921-37.609-79.069-66.836-161.991-66.836-80.022 0-146.54 27.006-161.038 62.984-309.209-76.17-286.69-364.172-286.69-364.172 452.532-138.837 916.345 0 916.345 0s22.159 288.003-287.642 364.172zM722.838 719.406c0 180.932-94.477 246.543-211.155 246.543s-211.155-65.567-211.155-246.543c0-135.937 94.477-246.543 211.155-246.543 116.678 0.317 211.155 110.562 211.155 246.543z" />
<glyph unicode="&#xe806;" glyph-name="trowel" d="M8.217 0.363c10.057 88.812 54.983 183.943 96.75 258.5 43.886 77.716 139.557 262.738 240.005 262.738 29.091 0 77.176-41.767 109.966-54.443-2.119-21.153-7.937-41.767-21.153-53.904l-84.574-77.716c38.068 19.034 71.358 39.648 106.767 63.421 54.443 35.949 13.755 207.216 80.875 272.255 19.574 19.034-12.676 22.733 41.767 66.079 84.034 66.079 177.085 117.363 264.857 178.665 158.591 111.006 211.994-27.472 157.512-72.437-75.596-62.381-142.716-106.767-250.023-177.085-78.756-51.284-132.159-78.255-170.727-38.068-33.83-29.591-44.387-109.966-32.25-178.164 15.335-83.534 126.88-109.426 190.841-141.136 95.17-47.585 81.415-75.057 10.057-126.341-126.341-91.432-352.591-177.085-612.67-208.795-52.864-6.358-135.858-42.807-127.92 26.432z" />
<glyph unicode="&#xe807;" glyph-name="linkedin" d="M852 960h-680c-94.6 0-172-77.4-172-172v-680c0-94.6 77.4-172 172-172h680c94.6 0 172 77.4 172 172v680c0 94.6-77.4 172-172 172zM384 128h-128v448h128v-448zM320 640c-35.346 0-64 28.654-64 64s28.654 64 64 64 64-28.654 64-64-28.654-64-64-64zM832 128h-128v256c0 35.346-28.654 64-64 64s-64-28.654-64-64v-256h-128v448h128v-79.472c26.398 36.264 66.752 79.472 112 79.472 79.53 0 144-71.634 144-160v-288z" />
<glyph unicode="&#xe808;" glyph-name="twitter" d="M1024 765.582c-37.676-16.708-78.164-28.002-120.66-33.080 43.372 26 76.686 67.17 92.372 116.23-40.596-24.078-85.556-41.56-133.41-50.98-38.32 40.83-92.922 66.34-153.346 66.34-116.022 0-210.088-94.058-210.088-210.078 0-16.466 1.858-32.5 5.44-47.878-174.6 8.764-329.402 92.4-433.018 219.506-18.084-31.028-28.446-67.116-28.446-105.618 0-72.888 37.088-137.192 93.46-174.866-34.438 1.092-66.832 10.542-95.154 26.278-0.020-0.876-0.020-1.756-0.020-2.642 0-101.788 72.418-186.696 168.522-206-17.626-4.8-36.188-7.372-55.348-7.372-13.538 0-26.698 1.32-39.528 3.772 26.736-83.46 104.32-144.206 196.252-145.896-71.9-56.35-162.486-89.934-260.916-89.934-16.958 0-33.68 0.994-50.116 2.94 92.972-59.61 203.402-94.394 322.042-94.394 386.422 0 597.736 320.124 597.736 597.744 0 9.108-0.206 18.168-0.61 27.18 41.056 29.62 76.672 66.62 104.836 108.748z" />
<glyph unicode="&#xe809;" glyph-name="facebook" d="M853.35 960h-682.702c-94.25 0-170.648-76.42-170.648-170.686v-682.63c0-94.266 76.398-170.684 170.648-170.684h341.352v448h-128v128h128v96c0 88.366 71.634 160 160 160h160v-128h-160c-17.674 0-32-14.328-32-32v-96h176l-32-128h-144v-448h213.35c94.25 0 170.65 76.418 170.65 170.684v682.63c0 94.266-76.4 170.686-170.65 170.686z" />
<glyph unicode="&#xe80a;" glyph-name="chevron-left" d="M711.219 80.998c13.722-13.926 13.722-36.301 0-50.125s-35.891-13.875-49.613 0l-400.896 404.89c-13.722 13.824-13.722 36.198 0 50.125l400.896 404.89c13.722 13.824 35.891 13.824 49.613 0 13.722-13.875 13.722-36.301 0-50.125l-365.619-379.853 365.619-379.802z" />
<glyph unicode="&#xe80b;" glyph-name="facebook2" d="M554.667 512h128v-128h-128v-298.667h-128v298.667h-128v128h128v53.547c0 50.731 15.957 114.816 47.701 149.845 31.744 35.115 71.381 52.608 118.869 52.608h89.429v-128h-89.6c-21.248 0-38.4-17.152-38.4-38.357v-89.643z" />
<glyph unicode="&#xe80c;" glyph-name="linkedin2" d="M384 576h177.106v-90.782h2.532c24.64 44.194 84.958 90.782 174.842 90.782 186.946 0 221.52-116.376 221.52-267.734v-308.266h-184.61v273.278c0 65.184-1.334 149.026-96.028 149.026-96.148 0-110.82-70.986-110.82-144.292v-278.012h-184.542v576zM64 576h192v-576h-192v576zM256 736c0-53.019-42.981-96-96-96s-96 42.981-96 96c0 53.019 42.981 96 96 96s96-42.981 96-96z" />
<glyph unicode="&#xe80d;" glyph-name="chevron-right" d="M312.781 840.602c-13.722 13.926-13.722 36.301 0 50.125s35.891 13.875 49.613 0l400.896-404.89c13.722-13.824 13.722-36.198 0-50.125l-400.896-404.89c-13.722-13.824-35.891-13.824-49.613 0-13.722 13.875-13.722 36.301 0 50.125l365.619 379.853-365.619 379.802z" />
<glyph unicode="&#xe80e;" glyph-name="chevron-right2" d="M469.146 741.581c21.402-20.89 230.502-240.384 230.502-240.384 11.418-11.213 17.152-25.805 17.152-40.397s-5.734-29.184-17.152-40.294c0 0-209.101-219.597-230.502-240.384-21.402-20.89-59.904-22.323-82.688 0-22.835 22.221-24.627 53.299 0 80.589l191.846 200.090-191.846 200.090c-24.627 27.29-22.835 58.419 0 80.691 22.784 22.323 61.286 20.941 82.688 0z" />
<glyph unicode="&#xe80f;" glyph-name="chevron-left2" d="M637.542 741.581c22.835-22.323 24.627-53.402 0-80.691l-191.846-200.090 191.846-200.090c24.627-27.29 22.835-58.419 0-80.589-22.784-22.323-61.286-20.89-82.688 0-21.402 20.787-230.502 240.384-230.502 240.384-11.418 11.11-17.152 25.702-17.152 40.294s5.734 29.184 17.152 40.397c0 0 209.101 219.494 230.502 240.384 21.402 20.941 59.904 22.323 82.688 0z" />
<glyph unicode="&#xe810;" glyph-name="caret-down" horiz-adv-x="585" d="M585.143 548.571q0-14.857-10.857-25.714l-256-256q-10.857-10.857-25.714-10.857t-25.714 10.857l-256 256q-10.857 10.857-10.857 25.714t10.857 25.714 25.714 10.857h512q14.857 0 25.714-10.857t10.857-25.714z" />
<glyph unicode="&#xe900;" glyph-name="arrow-left" d="M717.794 938.758v-1024.182l-512.091 512.091z" />
<glyph unicode="&#xe901;" glyph-name="arrow-drop-down" d="M0 632.424h1024l-512-512z" />
<glyph unicode="&#xe902;" glyph-name="arrow-right" d="M306.206-85.424v1024.182l512.091-512.091z" />
<glyph unicode="&#xe903;" glyph-name="help" d="M744.291 901.925c-64.746 46.685-146.076 70.029-243.991 70.029-74.458 0-137.33-16.414-188.388-49.298-81.046-51.456-124.097-138.863-129.321-262.108h187.82c0 35.952 10.507 70.426 31.408 103.821 20.958 33.282 56.511 49.923 106.661 49.923 51.002 0 86.157-13.518 105.298-40.495 19.254-27.091 28.852-57.022 28.852-89.849 0-28.625-14.312-54.807-31.634-78.548-9.484-13.858-21.979-26.637-37.541-38.28 0 0-101.834-65.314-146.531-117.793-25.898-30.385-28.227-75.992-30.556-141.306-0.113-4.657 1.647-14.312 17.89-14.312 16.3 0 131.537 0 146.019 0 14.539 0 17.55 10.734 17.72 15.562 1.023 23.741 3.635 35.952 8.008 49.696 8.179 25.955 30.556 48.56 55.602 68.097l51.683 35.61c46.685 36.405 83.886 66.223 100.356 89.623 28.057 38.393 47.821 85.76 47.821 141.987-0.057 91.724-32.43 160.843-97.176 207.642zM497.29 181.142c-64.69 1.988-118.077-42.824-120.121-113.022-1.988-70.085 48.73-116.486 113.477-118.361 67.529-1.988 119.497 41.289 121.598 111.489 1.931 70.198-47.367 117.906-114.953 119.894z" />
<glyph unicode="&#xe904;" glyph-name="clip" d="M875.616 20.384c-112.448-112.512-294.816-112.512-407.264 0l-350.976 350.944c-12.544 12.512-12.544 32.736 0 45.248 12.512 12.576 32.704 12.576 45.248 0l346.464-346.432c87.488-87.488 229.248-87.488 316.768 0.064 87.488 87.36 87.488 229.248 0 316.736l-456.864 462.304c-62.464 62.496-163.776 62.496-226.24 0-62.496-62.496-62.496-163.744 0-226.24l461.344-466.88c37.44-37.44 98.336-37.44 135.776 0 37.408 37.44 37.408 98.304 0 135.744l-351.008 351.008c-12.512 12.512-12.512 32.736 0 45.248 12.544 12.512 32.736 12.512 45.28 0l350.976-350.976c62.464-62.432 62.464-163.744 0-226.24-62.496-62.496-163.776-62.496-226.272 0l-461.376 466.88c-87.328 87.296-87.328 229.408 0 316.736s229.472 87.328 316.8 0l461.344-466.88c112.512-112.448 112.512-294.816 0-407.264z" />
<glyph unicode="&#xe905;" glyph-name="building" d="M1009.331 62.852c0 0-9.546 0-12.726 0-6.968 0-6.968 8.247-6.968 8.247v576.856c0 14.522-11.884 26.403-26.403 26.403 0 0-153.195 0-204.26 0-7.334 0-6.944 6.953-6.944 6.953v111.205c0 1.1 0.619 2.335 4.269 2.335 8.068 0 14.669 6.601 14.669 14.669v26.054c0 8.068-6.601 14.669-14.669 14.669h-474.281c-8.068 0-14.669-6.601-14.669-14.669v-26.054c0-8.068 6.601-14.669 14.669-14.669 4.263 0 4.271-3.82 4.271-4.263v-106.714c0 0 0.725-9.52-5.51-9.52-55.151 0-220.595 0-220.595 0-14.522 0-26.403-11.882-26.403-26.403 0 0 0-434.016 0-578.689 0-5.501-2.981-6.413-9.001-6.413-7.786 0-10.113 0-10.113 0-8.068 0-14.669-6.601-14.669-14.669v-30.42c0-8.068 6.601-14.669 14.669-14.669h994.663c8.068 0 14.669 6.601 14.669 14.669v30.42c0 8.071-6.601 14.671-14.669 14.671zM575.227 547.87h87.788c6.457 0 11.735-5.281 11.735-11.735v-87.791c0-6.454-5.278-11.735-11.735-11.735h-87.788c-6.457 0-11.735 5.281-11.735 11.735v87.791c0 6.454 5.278 11.735 11.735 11.735zM563.492 602.326v87.791c0 6.454 5.278 11.735 11.735 11.735h87.788c6.457 0 11.735-5.281 11.735-11.735v-87.791c0-6.454-5.278-11.735-11.735-11.735h-87.788c-6.457 0-11.735 5.281-11.735 11.735zM575.227 399.316h87.788c6.457 0 11.735-5.281 11.735-11.735v-87.791c0-6.454-5.278-11.735-11.735-11.735h-87.788c-6.457 0-11.735 5.281-11.735 11.735v87.791c0 6.451 5.278 11.735 11.735 11.735zM588.256 222.818c6.451 0 11.735-5.281 11.735-11.735v-135.933c0-6.454-5.284-11.735-11.735-11.735h-135.933c-6.451 0-11.735 5.281-11.735 11.735v135.933c0 6.454 5.284 11.735 11.735 11.735h135.933zM474.977 602.326c0-6.454-5.281-11.735-11.735-11.735h-87.791c-6.454 0-11.735 5.281-11.735 11.735v87.791c0 6.454 5.281 11.735 11.735 11.735h87.791c6.454 0 11.735-5.281 11.735-11.735v-87.791zM375.45 547.87h87.791c6.454 0 11.735-5.281 11.735-11.735v-87.791c0-6.454-5.281-11.735-11.735-11.735h-87.791c-6.454 0-11.735 5.281-11.735 11.735v87.791c0 6.454 5.281 11.735 11.735 11.735zM375.45 399.316h87.791c6.454 0 11.735-5.281 11.735-11.735v-87.791c0-6.454-5.281-11.735-11.735-11.735h-87.791c-6.454 0-11.735 5.281-11.735 11.735v87.791c0 6.451 5.281 11.735 11.735 11.735zM786.592 538.849c0 6.454 5.284 11.735 11.735 11.735h87.794c6.451 0 11.735-5.281 11.735-11.735v-87.791c0-6.454-5.284-11.735-11.735-11.735h-87.794c-6.451 0-11.735 5.281-11.735 11.735v87.791zM786.592 384.865c0 6.454 5.284 11.735 11.735 11.735h87.794c6.451 0 11.735-5.281 11.735-11.735v-87.791c0-6.454-5.284-11.735-11.735-11.735h-87.794c-6.451 0-11.735 5.281-11.735 11.735v87.791zM786.592 236.313c0 6.454 5.284 11.735 11.735 11.735h87.794c6.451 0 11.735-5.281 11.735-11.735v-87.791c0-6.454-5.284-11.735-11.735-11.735h-87.794c-6.451 0-11.735 5.281-11.735 11.735v87.791zM125.563 538.849c0 6.454 5.281 11.735 11.735 11.735h87.791c6.454 0 11.735-5.281 11.735-11.735v-87.791c0-6.454-5.281-11.735-11.735-11.735h-87.791c-6.454 0-11.735 5.281-11.735 11.735v87.791zM125.563 384.865c0 6.454 5.281 11.735 11.735 11.735h87.791c6.454 0 11.735-5.281 11.735-11.735v-87.791c0-6.454-5.281-11.735-11.735-11.735h-87.791c-6.454 0-11.735 5.281-11.735 11.735v87.791zM125.563 236.313c0 6.454 5.281 11.735 11.735 11.735h87.791c6.454 0 11.735-5.281 11.735-11.735v-87.791c0-6.454-5.281-11.735-11.735-11.735h-87.791c-6.454 0-11.735 5.281-11.735 11.735v87.791z" />
<glyph unicode="&#xe906;" glyph-name="arrow-drop-up" d="M1024 220.91h-1024l512 512z" />
<glyph unicode="&#xe907;" glyph-name="file-empty2" d="M917.806 730.924c-22.212 30.292-53.174 65.7-87.178 99.704s-69.412 64.964-99.704 87.178c-51.574 37.82-76.592 42.194-90.924 42.194h-496c-44.112 0-80-35.888-80-80v-864c0-44.112 35.888-80 80-80h736c44.112 0 80 35.888 80 80v624c0 14.332-4.372 39.35-42.194 90.924zM785.374 785.374c30.7-30.7 54.8-58.398 72.58-81.374h-153.954v153.946c22.984-17.78 50.678-41.878 81.374-72.572zM896 16c0-8.672-7.328-16-16-16h-736c-8.672 0-16 7.328-16 16v864c0 8.672 7.328 16 16 16 0 0 495.956 0.002 496 0v-224c0-17.672 14.326-32 32-32h224v-624z" />
<glyph unicode="&#xe908;" glyph-name="file-empty" horiz-adv-x="768" d="M448 960h-448v-1024h768v704.064l-320 319.936zM128 64v768h256v-256h256v-512h-512z" />
<glyph unicode="&#xe909;" glyph-name="download" d="M989.867 358.4c-18.842 0-34.132-15.291-34.132-34.132v-238.935h-887.468v238.933c0 18.842-15.291 34.132-34.133 34.132s-34.133-15.29-34.133-34.132v-273.067c0-18.842 15.291-34.133 34.133-34.133h955.733c18.842 0 34.133 15.293 34.133 34.133v273.067c0 18.842-15.293 34.133-34.133 34.133zM487.561 231.765c6.758-6.758 15.564-10.104 24.439-10.104s17.681 3.346 24.439 10.036l204.594 238.729c13.449 13.449 13.449 35.293 0 48.742s-35.226 13.449-48.742 0l-146.158-170.598v521.83c0 18.842-15.293 34.133-34.133 34.133s-34.133-15.293-34.133-34.133v-521.83l-146.228 170.598c-13.449 13.449-35.226 13.449-48.742 0-13.449-13.449-13.449-35.293 0-48.742l204.664-238.661z" />
<glyph unicode="&#xe90a;" glyph-name="print" d="M320.015 204.806h319.977v-64.011h-319.977v64.011zM256.019 908.797h511.977v-127.999h63.99v127.999c0.002 35.312-28.621 64.003-63.99 64.003h-511.977c-35.345 0-64.003-28.691-64.003-64.003v-127.999h64.003v127.999zM320.015 332.801h383.967v-64.003h-383.967v64.003zM959.991 716.798h-895.974c-35.345 0-64.003-28.683-64.003-63.996v-384.003c0-35.368 28.657-63.99 64.003-63.99h127.999v-192.006c0-35.379 28.657-64.001 64.003-64.001h511.977c35.368 0 63.99 28.621 63.99 64.001v192.006h128.003c35.371 0 63.992 28.621 63.992 63.99v384.003c0.002 35.314-28.619 63.996-63.99 63.996zM767.996 12.801h-511.977v384.003h511.977v-384.003zM895.98 524.796c-35.371 0-63.992 28.626-63.992 64.003 0 35.309 28.621 64.003 63.992 64.003 35.381 0 64.011-28.691 64.011-64.003 0-35.375-28.632-64.003-64.011-64.003z" />
<glyph unicode="&#xe90b;" glyph-name="calendar" d="M373.086 407.864c0 12.827-10.405 23.22-23.243 23.22h-81.108c-12.823 0-23.23-10.392-23.23-23.22v-81.097c0-12.844 10.407-23.24 23.23-23.24h81.108c12.838 0 23.243 10.396 23.243 23.24v81.097zM575.785 407.864c0 12.827-10.407 23.22-23.22 23.22h-81.118c-12.823 0-23.23-10.392-23.23-23.22v-81.097c0-12.844 10.407-23.24 23.23-23.24h81.118c12.813 0 23.22 10.396 23.22 23.24v81.097zM778.495 407.864c0 12.827-10.407 23.22-23.23 23.22h-81.108c-12.838 0-23.243-10.392-23.243-23.22v-81.097c0-12.844 10.405-23.24 23.243-23.24h81.108c12.823 0 23.23 10.396 23.23 23.24v81.097zM373.086 205.144c0 12.848-10.405 23.232-23.243 23.232h-81.108c-12.823 0-23.23-10.384-23.23-23.232v-81.083c0-12.836 10.407-23.23 23.23-23.23h81.108c12.838 0 23.243 10.396 23.243 23.23v81.083zM575.785 205.144c0 12.848-10.407 23.232-23.22 23.232h-81.118c-12.823 0-23.23-10.384-23.23-23.232v-81.083c0-12.836 10.407-23.23 23.23-23.23h81.118c12.813 0 23.22 10.396 23.22 23.23v81.083zM778.495 205.144c0 12.848-10.407 23.232-23.22 23.232h-81.118c-12.838 0-23.243-10.384-23.243-23.232v-81.083c0-12.836 10.405-23.23 23.243-23.23h81.118c12.813 0 23.22 10.396 23.22 23.23v81.083zM923.524 858.781v-123.87c0-55.988-45.42-101.105-101.399-101.105h-63.965c-55.984 0-102.005 45.117-102.005 101.105v124.314h-288.309v-124.314c0-55.988-46.020-101.105-101.995-101.105h-63.978c-55.977 0-101.395 45.117-101.395 101.105v123.87c-48.925-1.475-89.127-41.958-89.127-91.718v-725.935c0-50.695 41.090-92.331 91.785-92.331h817.728c50.62 0 91.785 41.721 91.785 92.331v725.935c0 49.76-40.2 90.243-89.125 91.718zM893.814 86.334c0-21.908-17.763-39.682-39.68-39.682h-686.015c-21.917 0-39.68 17.774-39.68 39.682v374.971c0 21.917 17.761 39.691 39.68 39.691h686.013c21.917 0 39.68-17.774 39.68-39.691l0.002-374.971zM201.648 700.213h63.271c19.205 0 34.776 15.548 34.776 34.753v203.069c0 19.207-15.571 34.765-34.776 34.765h-63.271c-19.207 0-34.776-15.559-34.776-34.765v-203.069c0-19.205 15.569-34.753 34.776-34.753zM757.346 700.213h63.271c19.192 0 34.763 15.548 34.763 34.753v203.069c0.002 19.207-15.569 34.765-34.763 34.765h-63.271c-19.202 0-34.774-15.559-34.774-34.765v-203.069c0-19.205 15.571-34.753 34.774-34.753z" />
<glyph unicode="&#xe90c;" glyph-name="monument" d="M991.697 105.8h-959.395c-17.839 0-32.303-14.464-32.303-32.303s14.464-32.303 32.303-32.303h959.395c17.839 0 32.303 14.464 32.303 32.303s-14.464 32.303-32.303 32.303zM113.333 532.197v-320.688h-20.645c-17.542 0-31.765-14.222-31.765-31.765v-20.645h902.099v20.645c0 17.542-14.222 31.765-31.765 31.765h-20.642v320.688h-168.353v-320.688h-146.111v320.688h-168.357v-320.688h-146.111v320.688h-168.35zM64.071 585.497h895.8c0.021 0.003 0.038 0.003 0.062 0 17.546 0 31.765 14.222 31.765 31.765 0 12.829-7.606 23.886-18.556 28.9l-446.588 230.703c-9.144 4.72-20.015 4.72-29.158 0l-447.905-231.383c-13.019-6.727-19.746-21.483-16.284-35.723 3.458-14.239 16.208-24.262 30.865-24.262z" />
<glyph unicode="&#xe90d;" glyph-name="chevron-down" d="M792.781 503.654c-20.89-21.402-240.384-230.502-240.384-230.502-11.213-11.418-25.805-17.152-40.397-17.152s-29.184 5.734-40.294 17.152c0 0-219.597 209.101-240.384 230.502-20.89 21.402-22.323 59.904 0 82.688 22.221 22.835 53.299 24.627 80.589 0l200.090-191.846 200.090 191.846c27.29 24.627 58.419 22.835 80.691 0 22.323-22.784 20.941-61.286 0-82.688z" />
<glyph unicode="&#xe90e;" glyph-name="chevron-up" d="M231.219 417.946c20.89 21.402 240.384 230.502 240.384 230.502 11.213 11.418 25.805 17.152 40.397 17.152s29.184-5.734 40.294-17.152c0 0 219.597-209.101 240.384-230.502 20.89-21.402 22.323-59.904 0-82.688-22.221-22.835-53.299-24.627-80.589 0l-200.090 191.846-200.090-191.846c-27.29-24.627-58.419-22.835-80.691 0-22.323 22.784-20.941 61.286 0 82.688z" />
<glyph unicode="&#xe90f;" glyph-name="photo" d="M960.948 749.907h-199.084l-117.726 111.739c-7.318 6.947-17.022 10.818-27.112 10.818h-210.051c-10.090 0-19.795-3.873-27.112-10.818l-117.726-111.739h-199.076c-34.834 0-63.060-28.22-63.060-63.052v-600.266c0-34.834 28.226-63.052 63.060-63.052h897.89c34.808 0 63.052 28.218 63.052 63.052v600.266c-0.003 34.832-28.247 63.052-63.055 63.052zM512 158.515c-126.033 0-228.205 102.172-228.205 228.205 0 126.036 102.172 228.205 228.205 228.205s228.205-102.169 228.205-228.205c0-126.033-102.172-228.205-228.205-228.205zM656.41 386.72c0-79.756-64.655-144.41-144.41-144.41s-144.41 64.655-144.41 144.41c0 79.756 64.655 144.41 144.41 144.41s144.41-64.655 144.41-144.41z" />
<glyph unicode="&#xe910;" glyph-name="error" d="M874.039 810.036c-96.706 96.702-225.281 149.964-362.038 149.964s-265.335-53.262-362.041-149.964c-96.702-96.702-149.961-225.278-149.961-362.038 0-136.757 53.258-265.332 149.961-362.034 96.706-96.706 225.278-149.961 362.038-149.961s265.332 53.258 362.038 149.961c96.702 96.702 149.961 225.278 149.961 362.034 0.003 136.76-53.255 265.335-149.957 362.038zM626.053 438.619l127.615-127.615c10.297-10.293 10.297-27.042 0-37.335l-73.703-73.703c-4.973-4.973-11.603-7.713-18.669-7.713s-13.696 2.739-18.669 7.713l-127.615 127.615c-2.469 2.462-6.864 2.462-9.336 0l-127.615-127.615c-4.973-4.973-11.603-7.713-18.669-7.713s-13.692 2.739-18.669 7.709l-73.703 73.706c-4.973 4.973-7.713 11.603-7.713 18.666 0 7.069 2.739 13.696 7.713 18.669l127.615 127.615c2.528 2.531 2.528 6.808-0.003 9.336l-133.004 133.004c-4.973 4.973-7.713 11.603-7.713 18.669s2.739 13.692 7.713 18.666l73.703 73.703c4.973 4.973 11.603 7.713 18.669 7.713s13.692-2.739 18.666-7.713l133.008-133.008c2.472-2.465 6.868-2.462 9.333 0l133.008 133.008c4.973 4.973 11.603 7.713 18.669 7.713s13.692-2.739 18.666-7.713l73.703-73.703c4.973-4.973 7.713-11.603 7.713-18.666 0-7.069-2.739-13.696-7.713-18.672l-133.004-133.001c-2.521-2.531-2.521-6.808 0.007-9.336z" />
<glyph unicode="&#xe911;" glyph-name="caution" d="M1019.608 32.046l-476.55 866.086c-6.23 11.323-18.134 18.358-31.056 18.358-12.925 0-24.823-7.035-31.056-18.358l-476.553-866.086c-6.043-10.98-5.836-24.336 0.542-35.128 6.377-10.79 17.978-17.408 30.512-17.408h953.109c12.536 0 24.137 6.618 30.514 17.408 6.377 10.792 6.582 24.148 0.539 35.128zM95.408 50.404l416.593 757.115 416.593-757.115h-833.187zM467.581 554.262v-256.203c0-24.528 19.889-44.42 44.42-44.42 24.528 0 44.42 19.892 44.42 44.42v256.203c0 24.531-19.892 44.42-44.42 44.42-24.531 0-44.42-19.892-44.42-44.42zM512.001 207.522c-25.796 0-46.788-20.981-46.788-46.788 0-25.799 20.992-46.788 46.788-46.788s46.788 20.989 46.788 46.788c0 25.804-20.995 46.788-46.788 46.788z" />
<glyph unicode="&#xe912;" glyph-name="document" horiz-adv-x="778" d="M45.367 958.272c0-1.080-6.265-6.481-14.042-12.314s-14.69-12.53-15.338-14.474c-0.648-2.16-1.944-3.889-2.808-3.889s-3.241-3.673-5.401-7.993c-3.241-7.561-3.457-42.559-3.024-475.922l0.648-467.713 6.913-10.37c7.561-11.666 21.819-23.332 32.837-27.004 10.586-3.673 672.513-3.673 683.099 0 11.018 3.673 25.276 15.554 33.053 27.004l6.697 10.37 0.648 384.972 0.432 385.188-15.554 17.283h-72.803c-71.075 0-73.019 0-82.309 4.969-5.401 2.592-11.882 7.993-14.474 12.098-4.969 7.345-4.969 8.209-4.969 77.988 0 77.772-0.648 81.877-12.962 91.166-3.673 2.592-6.481 6.049-6.481 7.561 0 2.376-46.447 2.808-257.080 2.808-141.502 0-257.080-0.864-257.080-1.728zM478.299 791.71c3.024-3.024 5.617-7.345 5.617-9.938 0-5.401-10.154-15.986-16.203-16.419-2.376-0.216-84.037-0.216-181.684-0.216-175.203 0.432-177.148 0.432-181.9 4.753-8.857 8.425-4.105 24.628 7.777 26.572 3.241 0.432 85.765 0.864 183.413 0.648l177.364-0.216 5.617-5.185zM663.008 700.543c7.777-2.808 11.018-7.561 11.018-16.851 0-14.258 22.251-13.178-287.325-13.178-310.441 0-287.325-1.080-287.325 13.826 0 7.561 3.024 12.314 9.722 15.986 6.049 3.457 544.189 3.673 553.911 0.216zM667.328 602.248c7.129-5.833 8.857-14.474 4.537-22.684-2.376-4.105-7.777-4.105-285.165-4.105s-282.788 0-285.165 4.105c-4.321 8.209-2.592 16.635 4.753 22.684l6.913 5.617h547.43l6.697-5.617zM668.408 505.249c7.561-6.049 8.425-15.986 2.376-22.684-3.889-4.321-6.049-4.321-283.652-4.321-312.169 0-287.757-1.296-287.757 14.906 0 5.617 1.512 8.857 6.049 12.53l5.833 4.753h550.886l6.265-5.185zM395.558 410.626c6.265-4.753 8.641-11.45 6.265-17.931-4.537-11.882 1.296-11.45-151.44-11.666-139.558 0-141.718 0-146.255 4.321-6.265 5.833-6.265 16.419 0 23.116l4.537 4.969h141.718c108.017-0.216 142.582-0.864 145.175-2.808zM605.759 409.978c7.129-1.944 14.69-4.753 16.635-6.481 1.728-1.728 4.537-3.024 5.833-3.024s8.641-6.049 16.419-13.394c15.554-15.122 25.708-33.701 29.597-54.441 2.592-14.474-0.648-43.423-5.617-48.824-1.728-1.944-3.241-5.185-3.241-7.345 0-6.049-19.875-30.893-29.813-37.158-8.425-5.401-9.289-6.697-8.425-12.53 2.16-13.61 6.481-32.837 9.073-40.182 1.512-4.105 5.401-18.795 8.425-32.405 3.241-13.61 7.129-30.677 8.857-37.806 3.889-16.419 3.889-18.363 0.216-18.363-3.457 0-19.227 8.641-38.022 20.955-7.777 5.185-14.906 9.289-15.77 9.289-1.080 0-4.969 2.376-8.857 5.401-8.425 6.265-15.122 6.697-23.98 0.864-3.457-2.16-7.993-4.753-9.722-5.617s-7.129-4.105-11.666-7.561c-4.537-3.241-9.289-6.049-10.37-6.049-0.864 0-5.833-3.024-10.802-6.481-5.185-3.673-11.666-6.481-15.338-6.481-6.265 0-6.481 0-5.185 10.154 2.16 16.203 6.697 35.862 9.722 41.046 1.296 2.592 2.592 7.561 2.592 11.234s1.296 10.802 3.024 15.77c4.537 14.69 9.722 34.565 11.018 43.207 1.080 7.561 0.648 8.425-9.722 16.203-12.746 9.505-27.436 29.597-33.053 44.935-3.024 8.641-3.889 15.77-3.241 35.646 0.648 23.548 1.080 25.708 8.209 39.534 7.561 15.122 23.764 33.269 34.133 38.238 3.241 1.728 7.345 4.321 9.289 5.833 10.154 8.209 47.959 11.45 69.779 5.833zM398.582 311.899c6.265-6.913 5.185-17.067-2.376-23.116l-6.265-4.969h-138.91c-137.181 0-139.126 0-145.391 4.537-7.129 5.185-8.425 15.122-2.808 23.116l3.241 4.753h144.311c141.934 0 144.311 0 148.199-4.321zM394.262 219.868c10.586-4.105 10.154-25.060-0.432-29.165-3.024-1.080-63.73-1.944-143.446-1.944-138.478 0-144.743 0.216-149.279 7.345-3.241 4.753-1.728 16.419 2.592 20.739s7.129 4.321 145.607 4.321c77.772 0 143.014-0.648 144.959-1.296zM396.206 120.709c6.265-5.833 7.345-15.122 2.592-21.819-3.024-3.889-7.129-4.105-148.199-4.105s-145.175 0.216-148.199 4.105c-4.753 6.697-3.673 15.986 2.592 21.819l5.833 5.401h279.548l5.833-5.401zM558.663 342.576c-7.129-4.321-16.419-20.523-16.419-29.165 0-11.45 7.993-25.924 17.283-31.109 18.579-10.802 41.695-3.889 49.688 14.906 5.617 13.178 5.401 20.091-0.864 31.973-6.913 12.746-14.258 17.067-30.461 17.067-8.209 0-15.122-1.512-19.227-3.673zM615.048 930.403c-0.864-0.648-1.512-29.165-1.512-63.082v-61.786l5.185-4.969c5.185-4.753 5.401-4.753 67.619-4.321 57.897 0.648 62.218 0.864 62.218 4.537 0 4.105-125.732 131.132-129.62 131.132-1.512 0-3.241-0.648-3.889-1.512z" />
</font>
</defs>
</svg>
